Around The World In 80 Days (2004) / Около света за 80 дни - Филми - Екшън - Филми - Торенти - Galactica



Home

Сайт меню
Раздел категории
Филми - Екшън [39]
Филми - Комедия [22]
Филми - Драма [6]
Филми - Приключенски [2]
Филми - Романтични [1]
Филми - Фантастика [5]
Филми - Криминални [1]
Филми - Мистерии [0]
Филми - Ужаси [10]
Филми - Военни [0]
Филми - Исторически [0]
Филми - Анимация [1]
Филми - Уестърни [2]
Филми - Музикални [0]
Нашата анкета
Оценете моя сайт
1. Отлично
2. Добър
3. Не е лош
4. Ужасен
5. Лош
Общо отговори: 41
Статистики


Общо онлайн: 1
Гости: 1
Потребители: 0
Вход във форума
Часовник
Карта
Посетители
free counters


Времето

Времето във Варна
Главна » Торенти » Филми » Филми - Екшън

Around The World In 80 Days (2004) / Около света за 80 дни DVD-Rip






05.01.2011, 12:26




Заглавие на Английски:
Around The World In 80 Days

Заглавие на Български: Около света за 80 дни


 Релийз: DVD-Rip




Жанр:
Екшън; Комедия; Приключенски

Режисьор: Франк Корачи

В ролите: Джеки Чан, Стив Кугън, Сесил Де Франс, Джим Броудбент

Държава: САЩ; Великобритания; Германия

Година: 2004

Дължина: 120 минути

Видео поток:
 ID : 1
Format : MPEG-4 Visual
Format profile : AdvancedSimple@L5
Format settings, BVOP : Yes
Format settings, QPel : No
Format settings, GMC : No warppoints
Format settings, Matrix : Default (MPEG)
Codec ID : XVID
Codec ID/Hint : XviD
Duration : 1h 59mn
Bit rate : 1 243 Kbps
Width : 720 pixels
Height : 304 pixels
Display aspect ratio : 2.35:1
Frame rate : 23.976 fps
Resolution : 24 bits
Colorimetry : 4:2:0
Scan type : Progressive
Bits/(Pixel*Frame) : 0.237
Stream size : 1.04 GiB (72%)
Writing library : XviD 1.2.1 (UTC 2008-12-04)


Аудио поток:
 ID : 2
Format : AC-3
Format/Info : Audio Coding 3
Codec ID : A_AC3
Duration : 2h 0mn
Bit rate mode : Constant
Bit rate : 448 Kbps
Channel(s) : 6 channels
Channel positions : Front: L C R, Surround: L R, LFE
Sampling rate : 48.0 KHz
Stream size : 385 MiB (26%)


Субтитри: Бългалрски

Резюме:
 Забавният и вещ в бойните изкуства Паспарту е крадец, който си присвоява ценна статуйка и се опитва да напусне страната с помощта на Фог, ексцентричен изобретател и пътешественик, който се е обзаложил, че ще обиколи света за 80 дни.

Категория: Филми - Екшън | Добавено от: Галински90
Преглеждания: 537 | Сваляния: 0
Общо коментари: 0
Само регистрирани потребители могат да добавят коментари.
[ Регистрация | Вход ]
Търси
Приятели на сайта
  • ovo.bg - Създай своят безплатен уеб сайт
  • Старт БГ
  • Гювеч БГ
  • Синоптик БГ
  • БГ торент тракери
  • Zamunda.net
  • ArenaBG.com
  • P2PBG.com
  • Elit-BG.com
  • AbsoluteTorrents.com
  • TrackrBG.com
  • Avatar-BG.com
  • AveTorrents.com
  • AxelBG.net
  • Energy-Torrent.com
  • Topavanta.com
  • Masters-TB.com
  • Torrent-Team.net
  • DeepSeek.net
  • LinkSeed.net
  • PowerShare-BG.com
  • Account-Co.net
  • UTeam-BG.net
  • Zamunda-BG.org
  • Чужди тракери
  • The Pirate Bay
  • Mininova
  • Bt Junkie
  • Extra Torrent
  • TorrentZ
  • IsoHunt
  • Only Torrents
  • Вестници
  • Топ Новини
  • Вести
  • 24 Часа
  • Труд
  • Стандарт
  • Новинар
  • Сега
  • Народно дело
  • Афера
  • Днес БГ
  • Днес +
  • BG TIME MK
  • Клюки
  • Би Нюз
  • Дарик Нюз
  • B2B Нюз
  • Фокус
  • Нюз БГ
  • Актуално
  • Разкрития
  • Дневник
  • Новините днес
  • Онлайн ТВ БГ
  • БНТ1
  • БТВ
  • Нова ТВ
  • ТВ7
  • Ринг БГ
  • VTV
  • Черно море
  • Онлайн Радио с Winamp
  • Витоша
  • Радио 1
  • N-JOY
  • Eнерджи
  • The Voice
  • Сити
  • Радио 999
  • Веселина
  • Вероника
  • Фолк Радио
  • Обяви

    Безплатна реклама
    Реклама
    galactica.ovo.bg © 2010 - 2016Сайтът е създаден в системата .


    Безплатна реклама



    BGtop Test your Internet connection speed at Speedtest.net Авторские смайлы стиля КОЛОБОК

    R.G. HQCLUB - Любителски клуб на висококачествените филми. Свали филми - безплатно и без регистрация! Гласувай за нас в Sait1

    Author’s emoticons KOLOBOK-Style

    galactica.ovo.bg © 2010 - 2011 | Design: Kuto | e-mall galactica.ovo@abv.bg
    Zamunda.net | Wikipedia

    Онлайн потребители:


    Внимание!

    Нито един от файловете в домейна не се хоства на сървъра на ovo.bg. Всички линкове са огледални, предоставени от потребителите чрез p2p-технологията за свободна обмяна на файлове в интернет. Екипа на сайта, ползвателят на домена и собственника на хостинга не носят никъква отговорност за материалите качени в сайта, тъй като те са предоставени от потребители в други сайтове. Ако притежавате авторски права върху ителектуална собственност линкната на сайта, моля свържете се с нас на galactica.ovo@abv.bg и ние ще направим всичко възможно да Ви помогнем.