Последният Дракон (1985) / The Last Dragon - Филми - Екшън - Филми - Торенти - Galactica



Home

Сайт меню
Раздел категории
Филми - Екшън [39]
Филми - Комедия [22]
Филми - Драма [6]
Филми - Приключенски [2]
Филми - Романтични [1]
Филми - Фантастика [5]
Филми - Криминални [1]
Филми - Мистерии [0]
Филми - Ужаси [10]
Филми - Военни [0]
Филми - Исторически [0]
Филми - Анимация [1]
Филми - Уестърни [2]
Филми - Музикални [0]
Нашата анкета
Оценете моя сайт
1. Отлично
2. Добър
3. Не е лош
4. Ужасен
5. Лош
Общо отговори: 41
Статистики


Общо онлайн: 1
Гости: 1
Потребители: 0
Вход във форума
Часовник
Карта
Посетители
free counters


Времето

Времето във Варна
Главна » Торенти » Филми » Филми - Екшън

Последният Дракон (1985) / The Last Dragon DVD-Rip






26.01.2011, 23:10


The Last Dragon

Последният Дракон

DVD-Rip

Жанр: Драма; Екшън; Комедия

Режисьор: Майкъл Шулц

Сценарист: Луис Веноста

В ролите: Теймак, Ванити, Кристофър Мърни, Джулиас Кари, Фейт Принс, Лео О'Браян, Майк Стар, Джим Муди, Глен Ейтън, Ърни Рейес Джуниър и др.

Държава: САЩ

Година: 1985

Дължина: 01:48:20

Видео поток: 
Format: MPEG-4 Visual
Format profile: Streaming Video@L1
Format settings, BVOP: Yes
Format settings, QPel: No
Format settings, GMC: No warppoints
Format settings, Matrix: Custom
Codec ID: XVID
Codec ID/Hint: XviD
Duration: 1h 48mn
Bit rate: 1 609 Kbps
Width: 640 pixels
Height: 352 pixels
Display aspect ratio: 16/9
Frame rate: 23.976 fps
Resolution: 24 bits
Colorimetry: 4:2:0
Scan type: Progressive
Bits/(Pixel*Frame): 0.298
Stream size: 1.22 GiB (89%)
Writing library: XviD 1.2.1 (UTC 2008-12-04)


Аудио поток: 
Format: AC-3
Format/Info: Audio Coding 3
Format profile: Dolby Digital
Codec ID: 2000
Duration: 1h 48mn
Bit rate mode: Constant
Bit rate: 192 Kbps
Channel(s): 2 channels
Channel positions: L R
Sampling rate: 48.0 KHz
Stream size: 149 MiB (11%)
Alignment: Split accross interleaves
Interleave, duration: 96 ms (2.30 video frames)
Interleave, preload duration: 96 ms


Субтитри: български

Линк към IMDB: http://www.imdb.com/title/tt0089461/

Резюме: 
Лирой Грийн е майстор по бойни изкуства, който отказва да се бие по улиците. Фен на Брус Ли до такава степен, че се облича и се храни като него. Хората го мислят за странен, а семейството му за луд. За да стигне "Последният Дракон" той трябва да мине последното ниво "Изгряването". По пътя към целта си той среща очерователна ТВ водеща (Лаура) в която е влюбен малкия му брат (Ричи). Нещата загрубяват когато менъджера (Еди) на бездарна певица се опитва да пусне клип в Шоуто на Лаура. На помощ е извикан местен бабаит който сам се нарича Шогунът на Харлем. Еди е готов да плати голяма сума пари за да получи това което иска, но Шогунът едва ли ще иска пари за да бие с Лирой.

Story:
A young man searches for the "master" to obtain the final level of martial arts mastery known as the glow. Along the way he must fight an evil martial arts expert and an rescue a beautiful singer from an obsessed music promoter.


БГ дизайн на обложката: Ninja
Категория: Филми - Екшън | Добавено от: Kuto
Преглеждания: 1006 | Сваляния: 45
Общо коментари: 0
Само регистрирани потребители могат да добавят коментари.
[ Регистрация | Вход ]
Търси
Приятели на сайта
  • ovo.bg - Създай своят безплатен уеб сайт
  • Старт БГ
  • Гювеч БГ
  • Синоптик БГ
  • БГ торент тракери
  • Zamunda.net
  • ArenaBG.com
  • P2PBG.com
  • Elit-BG.com
  • AbsoluteTorrents.com
  • TrackrBG.com
  • Avatar-BG.com
  • AveTorrents.com
  • AxelBG.net
  • Energy-Torrent.com
  • Topavanta.com
  • Masters-TB.com
  • Torrent-Team.net
  • DeepSeek.net
  • LinkSeed.net
  • PowerShare-BG.com
  • Account-Co.net
  • UTeam-BG.net
  • Zamunda-BG.org
  • Чужди тракери
  • The Pirate Bay
  • Mininova
  • Bt Junkie
  • Extra Torrent
  • TorrentZ
  • IsoHunt
  • Only Torrents
  • Вестници
  • Топ Новини
  • Вести
  • 24 Часа
  • Труд
  • Стандарт
  • Новинар
  • Сега
  • Народно дело
  • Афера
  • Днес БГ
  • Днес +
  • BG TIME MK
  • Клюки
  • Би Нюз
  • Дарик Нюз
  • B2B Нюз
  • Фокус
  • Нюз БГ
  • Актуално
  • Разкрития
  • Дневник
  • Новините днес
  • Онлайн ТВ БГ
  • БНТ1
  • БТВ
  • Нова ТВ
  • ТВ7
  • Ринг БГ
  • VTV
  • Черно море
  • Онлайн Радио с Winamp
  • Витоша
  • Радио 1
  • N-JOY
  • Eнерджи
  • The Voice
  • Сити
  • Радио 999
  • Веселина
  • Вероника
  • Фолк Радио
  • Обяви

    Безплатна реклама
    Реклама
    galactica.ovo.bg © 2010 - 2016Сайтът е създаден в системата .


    Безплатна реклама



    BGtop Test your Internet connection speed at Speedtest.net Авторские смайлы стиля КОЛОБОК

    R.G. HQCLUB - Любителски клуб на висококачествените филми. Свали филми - безплатно и без регистрация! Гласувай за нас в Sait1

    Author’s emoticons KOLOBOK-Style

    galactica.ovo.bg © 2010 - 2011 | Design: Kuto | e-mall galactica.ovo@abv.bg
    Zamunda.net | Wikipedia

    Онлайн потребители:


    Внимание!

    Нито един от файловете в домейна не се хоства на сървъра на ovo.bg. Всички линкове са огледални, предоставени от потребителите чрез p2p-технологията за свободна обмяна на файлове в интернет. Екипа на сайта, ползвателят на домена и собственника на хостинга не носят никъква отговорност за материалите качени в сайта, тъй като те са предоставени от потребители в други сайтове. Ако притежавате авторски права върху ителектуална собственност линкната на сайта, моля свържете се с нас на galactica.ovo@abv.bg и ние ще направим всичко възможно да Ви помогнем.