Saw VII (2010) / Убийствен пъзел 7 - Филми - Ужаси - Филми - Торенти - Galactica



Home

Сайт меню
Раздел категории
Филми - Екшън [39]
Филми - Комедия [22]
Филми - Драма [6]
Филми - Приключенски [2]
Филми - Романтични [1]
Филми - Фантастика [5]
Филми - Криминални [1]
Филми - Мистерии [0]
Филми - Ужаси [10]
Филми - Военни [0]
Филми - Исторически [0]
Филми - Анимация [1]
Филми - Уестърни [2]
Филми - Музикални [0]
Нашата анкета
Оценете моя сайт
1. Отлично
2. Добър
3. Не е лош
4. Ужасен
5. Лош
Общо отговори: 41
Статистики


Общо онлайн: 1
Гости: 1
Потребители: 0
Вход във форума
Часовник
Карта
Посетители
free counters


Времето

Времето във Варна
Главна » Торенти » Филми » Филми - Ужаси

Saw VII (2010) / Убийствен пъзел 7 BRRip






30.12.2010, 08:39

Saw VII

Убийствен пъзел 7

BRRip

Жанр: Трилър; Ужаси

Режисьор: Кевин Грютерт

  Маркъс Манстън, Патрик Мелтон

В ролите: 

Тобин Бел, Костас Мандилър, Тенедра Хауърд, Джули Бендз, Моника Потър, Бетси Рузел, Чат Донела, Дийн Армстронг, Ребека Маршал, Наоми Шнейкъс, Кари Елуис

Държава: САЩ

Година: 2010

Дължина: 01:30:00

Официален сайт: http://saw3dmovie.com/

Видео поток:

Format : MPEG-4 Visual
Format profile : Advanced Simple@L5
Format settings, BVOP : Yes
Format settings, QPel : No
Format settings, GMC : No warppoints
Format settings, Matrix : Default (H.263)
Codec ID : XVID
Codec ID/Hint : XviD
Duration : 1h 30mn
Bit rate : 942 Kbps
Width : 640 pixels
Height : 352 pixels
Display aspect ratio : 16:9
Frame rate : 23.976 fps
Color space : YUV
Chroma subsampling : 4:2:0
Bit depth : 8 bits
Scan type : Progressive
Bits/(Pixel*Frame) : 0.174
Stream size : 606 MiB (87%)
Writing library : XviD 1.2.1 (UTC 2008-12-04)

Аудио поток:

Format : MPEG Audio
Format version : Version 1
Format profile : Layer 3
Mode : Joint stereo
Mode extension : MS Stereo
Codec ID : 55
Codec ID/Hint : MP3
Duration : 1h 30mn
Bit rate mode : Variable
Bit rate : 135 Kbps
Nominal bit rate : 144 Kbps
Channel(s) : 2 channels
Sampling rate : 48.0 KHz
Stream size : 86.6 MiB (12%)
Alignment : Aligned on interleaves
Interleave, duration : 24 ms (0.58 video frame)
Interleave, preload duration : 62 ms
Title : English - 3LT0N
Writing library : LAME3.98r
Encoding settings : -m j -V 4 -q 2 -lowpass 17.5 --abr 144

Субтитри: Български

Линк към IMDB: http://www.imdb.com/title/tt1477076/

Резюме:

Този октомври, най-успешната поредица ужаси във филмовата история пристига за седми и последен път в кината, в ярко и смразяващо 3D.

Докато смъртоносна битка за бруталното завещание на Пъзела (Торбин Бел) се развихря, група оцелели от нечовешките му игри се събират, за да подкрепят гуруто Боби Дейгън (Шон Патрик Фланъри), друг оцелял, човек чиито собствени мрачни тайни ще отприщят нова вълна от ужаси.

Феновете на поредицата могат да очакват появата на героя от първия филм – Д-р Гордън (Кари Елуис).

Категория: Филми - Ужаси | Добавено от: krisschan13
Преглеждания: 650 | Сваляния: 1
Общо коментари: 0
Само регистрирани потребители могат да добавят коментари.
[ Регистрация | Вход ]
Търси
Приятели на сайта
  • ovo.bg - Създай своят безплатен уеб сайт
  • Старт БГ
  • Гювеч БГ
  • Синоптик БГ
  • БГ торент тракери
  • Zamunda.net
  • ArenaBG.com
  • P2PBG.com
  • Elit-BG.com
  • AbsoluteTorrents.com
  • TrackrBG.com
  • Avatar-BG.com
  • AveTorrents.com
  • AxelBG.net
  • Energy-Torrent.com
  • Topavanta.com
  • Masters-TB.com
  • Torrent-Team.net
  • DeepSeek.net
  • LinkSeed.net
  • PowerShare-BG.com
  • Account-Co.net
  • UTeam-BG.net
  • Zamunda-BG.org
  • Чужди тракери
  • The Pirate Bay
  • Mininova
  • Bt Junkie
  • Extra Torrent
  • TorrentZ
  • IsoHunt
  • Only Torrents
  • Вестници
  • Топ Новини
  • Вести
  • 24 Часа
  • Труд
  • Стандарт
  • Новинар
  • Сега
  • Народно дело
  • Афера
  • Днес БГ
  • Днес +
  • BG TIME MK
  • Клюки
  • Би Нюз
  • Дарик Нюз
  • B2B Нюз
  • Фокус
  • Нюз БГ
  • Актуално
  • Разкрития
  • Дневник
  • Новините днес
  • Онлайн ТВ БГ
  • БНТ1
  • БТВ
  • Нова ТВ
  • ТВ7
  • Ринг БГ
  • VTV
  • Черно море
  • Онлайн Радио с Winamp
  • Витоша
  • Радио 1
  • N-JOY
  • Eнерджи
  • The Voice
  • Сити
  • Радио 999
  • Веселина
  • Вероника
  • Фолк Радио
  • Обяви

    Безплатна реклама
    Реклама
    galactica.ovo.bg © 2010 - 2016Сайтът е създаден в системата .


    Безплатна реклама



    BGtop Test your Internet connection speed at Speedtest.net Авторские смайлы стиля КОЛОБОК

    R.G. HQCLUB - Любителски клуб на висококачествените филми. Свали филми - безплатно и без регистрация! Гласувай за нас в Sait1

    Author’s emoticons KOLOBOK-Style

    galactica.ovo.bg © 2010 - 2011 | Design: Kuto | e-mall galactica.ovo@abv.bg
    Zamunda.net | Wikipedia

    Онлайн потребители:


    Внимание!

    Нито един от файловете в домейна не се хоства на сървъра на ovo.bg. Всички линкове са огледални, предоставени от потребителите чрез p2p-технологията за свободна обмяна на файлове в интернет. Екипа на сайта, ползвателят на домена и собственника на хостинга не носят никъква отговорност за материалите качени в сайта, тъй като те са предоставени от потребители в други сайтове. Ако притежавате авторски права върху ителектуална собственност линкната на сайта, моля свържете се с нас на galactica.ovo@abv.bg и ние ще направим всичко възможно да Ви помогнем.